» » » Mahanati (2018) Telugu - 720p - PreDVDRip - x264 - MP3-TMV

New Rules 2018

Hello, From today we don't allow any type of Duplicate Content, If we find anyone posting Duplicate Articles we will terminate the access, Also If you want to continue the posting you must use Either

Uploadgig or Rapidgator

Reason :- they delete file slowly as comparison to other file-hosts We hope you will follow the new rules of the site Thank you Regards Admin:

Mahanati (2018) Telugu - 720p - PreDVDRip - x264 - MP3-TMV

wroser | 0 Comments | 44 Views | Category : Movies / Bollywood Movies |
10
05
2018
Mahanati (2018) Telugu - 720p - PreDVDRip - x264 - MP3-TMV




General
Format                      : Matroska
Format version              : Version 4 / Version 2
File size                   : 1.36 GiB
Duration                    : 2 h 45 min
Overall bit rate            : 1 176 kb/s
Encoded date                : UTC 2018-05-09 10:38:45
Writing application         : mkvmerge v7.1.0 ('Good Love') 32bit built on Jul 27 2014 12:59:18
Writing library             : libebml v1.3.0 + libmatroska v1.4.1

Video
ID                          : 1
Format                      : AVC
Format/Info                 : Advanced Video Codec
Format profile              : [email protected]
Format settings, CABAC      : Yes
Format settings, RefFrames  : 4 frames
Codec ID                    : V_MPEG4/ISO/AVC
Duration                    : 2 h 45 min
Bit rate                    : 1 078 kb/s
Width                       : 1 280 pixels
Height                      : 544 pixels
Display aspect ratio        : 2.35:1
Frame rate mode             : Constant
Frame rate                  : 24.000 FPS
Color space                 : YUV
Chroma subsampling          : 4:2:0
Bit depth                   : 8 bits
Scan type                   : Progressive
Bits/(Pixel*Frame)          : 0.065
Stream size                 : 1.25 GiB (92%)
Writing library             : x264 core 155 r2901 7d0ff22
Encoding settings           : cabac=1 / ref=3 / deblock=1:0:0 / analyse=0x3:0x113 / me=hex / subme=7 / psy=1 / psy_rd=1.00:0.00 / mixed_ref=1 / me_range=16 / chroma_me=1 / trellis=1 / 8x8dct=1 / cqm=0 / deadzone=21,11 / fast_pskip=1 / chroma_qp_offset=-2 / threads=17 / lookahead_threads=2 / sliced_threads=0 / nr=0 / decimate=1 / interlaced=0 / bluray_compat=0 / constrained_intra=0 / bframes=3 / b_pyramid=2 / b_adapt=1 / b_bias=0 / direct=1 / weightb=1 / open_gop=0 / weightp=2 / keyint=240 / keyint_min=24 / scenecut=40 / intra_refresh=0 / rc_lookahead=40 / rc=2pass / mbtree=1 / bitrate=1078 / ratetol=1.0 / qcomp=0.60 / qpmin=0 / qpmax=69 / qpstep=4 / cplxblur=20.0 / qblur=0.5 / ip_ratio=1.40 / aq=1:1.00
Language                    : Telugu
Default                     : Yes
Forced                      : No

Audio
ID                          : 2
Format                      : MPEG Audio
Format version              : Version 1
Format profile              : Layer 3
Mode                        : Joint stereo
Mode extension              : MS Stereo
Codec ID                    : A_MPEG/L3
Codec ID/Hint               : MP3
Duration                    : 2 h 45 min
Bit rate mode               : Constant
Bit rate                    : 96.0 kb/s
Channel(s)                  : 2 channels
Sampling rate               : 32.0 kHz
Frame rate                  : 27.778 FPS (1152 SPF)
Compression mode            : Lossy
Stream size                 : 114 MiB (8%)
Writing library             : LAME3.100-
Language                    : Telugu
Default                     : Yes
Forced                      : No






SINGLE DIRECT FAST LINKS

http://www.heroupload.us/7fa37e018ef5718b/Mahanati.2018.Telugu.720p.x264-TMV.mkv



http://filefloater.com/T2a/Mahanati.2018.Telugu.720p.x264-TMV.mkv



скачать dle 12.0
© 2018 IRfree.biz
все шаблоны для dle на сайте шаблоны dle 11.2 скачать