» » » Mahanati (2018) Telugu - 1080p - PreDVDRip - x264 - MP3-TMV

New Rules 2018

Hello, From today we don't allow any type of Duplicate Content, If we find anyone posting Duplicate Articles we will terminate the access, Also If you want to continue the posting you must use Either

Uploadgig or Rapidgator

Reason :- they delete file slowly as comparison to other file-hosts We hope you will follow the new rules of the site Thank you Regards Admin:

Mahanati (2018) Telugu - 1080p - PreDVDRip - x264 - MP3-TMV

wroser | 0 Comments | 32 Views | Category : Movies / Bollywood Movies |
10
05
2018
Mahanati (2018) Telugu - 1080p - PreDVDRip - x264 - MP3-TMV





General
Format                      : Matroska
Format version              : Version 4 / Version 2
File size                   : 2.39 GiB
Duration                    : 2 h 45 min
Overall bit rate            : 2 062 kb/s
Encoded date                : UTC 2018-05-09 12:40:30
Writing application         : mkvmerge v7.1.0 ('Good Love') 32bit built on Jul 27 2014 12:59:18
Writing library             : libebml v1.3.0 + libmatroska v1.4.1

Video
ID                          : 1
Format                      : AVC
Format/Info                 : Advanced Video Codec
Format profile              : [email protected]
Format settings, CABAC      : Yes
Format settings, RefFrames  : 4 frames
Codec ID                    : V_MPEG4/ISO/AVC
Duration                    : 2 h 45 min
Bit rate                    : 1 932 kb/s
Width                       : 1 920 pixels
Height                      : 816 pixels
Display aspect ratio        : 2.35:1
Frame rate mode             : Constant
Frame rate                  : 24.000 FPS
Color space                 : YUV
Chroma subsampling          : 4:2:0
Bit depth                   : 8 bits
Scan type                   : Progressive
Bits/(Pixel*Frame)          : 0.051
Stream size                 : 2.24 GiB (94%)
Writing library             : x264 core 155 r2901 7d0ff22
Encoding settings           : cabac=1 / ref=3 / deblock=1:0:0 / analyse=0x3:0x113 / me=hex / subme=7 / psy=1 / psy_rd=1.00:0.00 / mixed_ref=1 / me_range=16 / chroma_me=1 / trellis=1 / 8x8dct=1 / cqm=0 / deadzone=21,11 / fast_pskip=1 / chroma_qp_offset=-2 / threads=18 / lookahead_threads=3 / sliced_threads=0 / nr=0 / decimate=1 / interlaced=0 / bluray_compat=0 / constrained_intra=0 / bframes=3 / b_pyramid=2 / b_adapt=1 / b_bias=0 / direct=1 / weightb=1 / open_gop=0 / weightp=2 / keyint=240 / keyint_min=24 / scenecut=40 / intra_refresh=0 / rc_lookahead=40 / rc=2pass / mbtree=1 / bitrate=1932 / ratetol=1.0 / qcomp=0.60 / qpmin=0 / qpmax=69 / qpstep=4 / cplxblur=20.0 / qblur=0.5 / ip_ratio=1.40 / aq=1:1.00
Language                    : Telugu
Default                     : Yes
Forced                      : No

Audio
ID                          : 2
Format                      : MPEG Audio
Format version              : Version 1
Format profile              : Layer 3
Mode                        : Joint stereo
Mode extension              : MS Stereo
Codec ID                    : A_MPEG/L3
Codec ID/Hint               : MP3
Duration                    : 2 h 45 min
Bit rate mode               : Constant
Bit rate                    : 128 kb/s
Channel(s)                  : 2 channels
Sampling rate               : 48.0 kHz
Frame rate                  : 41.667 FPS (1152 SPF)
Compression mode            : Lossy
Stream size                 : 152 MiB (6%)
Writing library             : LAME3.100ª
Language                    : Telugu
Default                     : Yes
Forced                      : No







SINGLE DIRECT FAST LINKS

http://www.heroupload.us/0dd86316dbc58d77/Mahanati.2018.Telugu.1080p.x264-TMV.mkv


http://filefloater.com/T2b/Mahanati.2018.Telugu.1080p.x264-TMV.mkv

700MB LINKS



http://www.heroupload.us/8cb29cb1f6063c5e/Mahanati.2018.Telugu.1080p.x264-TMV.part1.rar
http://www.heroupload.us/4831f618144a800f/Mahanati.2018.Telugu.1080p.x264-TMV.part2.rar
http://www.heroupload.us/31a87a82b65ca37c/Mahanati.2018.Telugu.1080p.x264-TMV.part3.rar
http://www.heroupload.us/4932b12b892798da/Mahanati.2018.Telugu.1080p.x264-TMV.part4.rar




http://filefloater.com/T2c/Mahanati.2018.Telugu.1080p.x264-TMV.part1.rar
http://filefloater.com/T2d/Mahanati.2018.Telugu.1080p.x264-TMV.part2.rar
http://filefloater.com/T2e/Mahanati.2018.Telugu.1080p.x264-TMV.part3.rar
http://filefloater.com/T2f/Mahanati.2018.Telugu.1080p.x264-TMV.part4.rar

скачать dle 12.0
© 2018 IRfree.biz
все шаблоны для dle на сайте шаблоны dle 11.2 скачать